#TITLE:LET THE MUSIC PLAY;
#SUBTITLE:;
#ARTIST:Bus Stop;
#TITLETRANSLIT:;
#SUBTITLETRANSLIT:;
#ARTISTTRANSLIT:;
#CREDIT:;
#BANNER:LetTheMusicPlay-banner.png;
#BACKGROUND:LetTheMusicPlay-bg.png;
#LYRICSPATH:;
#CDTITLE:;
#MUSIC:Let The Music Play.mp3;
#MUSICLENGTH:98.489;
#OFFSET:-0.060;
#SAMPLESTART:68.505;
#SAMPLELENGTH:12.000;
#SELECTABLE:YES;
#BPMS:0.000=140.000;
#STOPS:;
#BGCHANGES:;
#FIRSTBEAT:8.500;

#LASTBEAT:224.000;

#SONGFILENAME:Songs/ERICth The 3rd/Let The Music Play/Let Music Play.sm;

#HASMUSIC:1;

#HASBANNER:1;


//---------------dance-single - MANIAC----------------
#NOTES:
     dance-single:
     MANIAC:
     hard:
     7:
     0.464,0.455,0.305,0.142,0.198,276.000,30.000,14.000,0.000,0.000:




0000
0000
0000
0000
,
0000
0000
0000
0000
,
0000
0000
0000
0000
,
0000
0000
0000
0000
,
1000
0010
0001
1000
,
0100
1000
0100
0001
,
1000
0010
0012
0100
,
1003
0000
0000
0000
,
1000
0000
0010
0000
0100
0000
0001
0000
1000
0000
0000
1000
0000
0000
1000
0000
,
0010
0000
0000
0010
0000
0000
0010
0000
0100
0000
0000
0100
0000
0000
0100
0000
,
0001
0000
0001
0000
0010
0000
0100
0000
0001
0000
0000
0001
0000
0000
1000
0100
,
0000
0100
0110
0000
0011
0000
1100
0000
,
0010
0000
0001
0000
0100
0000
0001
0000
1000
0000
0000
1001
0000
0000
0010
0000
,
0001
0000
0000
1100
0000
0000
0100
0000
1000
0000
0000
1000
0000
0000
1000
0000
,
0100
0000
0100
0000
0010
0000
0001
0000
1000
0000
0000
1010
0000
0000
0100
0001
,
2000
0000
0000
3001
,
0100
0001
1000
0100
1000
0000
0001
0100
,
0010
0000
1000
0100
1000
0000
0001
1000
,
0100
0100
0010
0010
,
0001
0000
0000
0100
0000
0000
1000
0000
0000
0100
0000
0000
0001
0000
0100
0000
,
2000
0000
0000
0000
3100
0000
0000
0000
0010
0000
0000
0010
0000
0000
0010
0001
,
0000
0000
1000
0000
2010
0000
0000
0000
0010
0000
0000
0010
3000
0000
0010
0100
,
0000
0000
0001
0000
0001
0000
0000
0000
1000
0000
0000
0110
0000
0000
0001
0010
,
0000
0101
0100
0000
2001
0000
0000
0000
,
3010
1000
0100
1000
0010
0000
0010
0001
,
0100
0000
0100
1000
0001
0000
1000
0001
,
1000
0000
0100
0000
0010
0000
0100
0010
,
0001
0000
0000
1000
0000
0000
0100
0000
1000
0000
0000
0010
0000
0000
0001
0000
,
0002
1000
0100
0013
,
0001
0000
1000
0000
0100
0000
0000
0000
0010
0000
0000
1010
0000
0000
1000
0010
,
0000
0000
0100
0000
0010
0000
0000
0000
0010
0000
0000
0001
0000
0000
1000
0001
,
0000
0000
1000
0000
2000
0000
0000
0000
3001
0000
0000
1000
0000
0000
0001
0000
,
1000
0100
0010
0100
0100
0000
0100
0010
,
0100
0000
1000
0100
0010
0000
0001
0100
,
0100
0000
0010
0000
0010
0000
0000
1000
,
0100
0000
0000
0110
0000
0000
0010
0000
0110
0000
0000
0100
0000
0000
0110
0000
,
0000
2200
0000
0000
0000
3300
0000
0100
,
1000
0000
0000
0001
0000
0000
1000
0000
0100
0000
0000
0010
0000
0000
0010
0000
,
0022
0000
0000
0033
,
0220
0000
0030
0000
0010
0300
0010
0000
,
1000
0100
1000
0010
0100
0001
1000
0000
,
0000
0000
0010
0100
0001
1000
0100
0000
,
0010
0100
1000
0001
0100
0010
0100
0000
,
0001
1000
0001
1000
0100
1000
0010
0000
,
0000
0000
0001
1000
0010
0001
0010
1000
,
0100
0000
0100
0000
0100
0010
0100
0000
,
0110
0000
1001
0000
,
0101
1100
0101
1100
,
1000
0000
0010
0000
0100
0000
0001
0000
1000
0000
0000
1000
0000
0000
1000
0000
,
0010
0000
0000
0010
0000
0000
0010
0000
0100
0000
0000
0100
0000
0000
0100
0000
,
0001
0000
0001
0000
0010
0000
0100
0000
0001
0000
0000
0001
0000
0000
1000
0100
,
0000
0100
0110
0000
0011
0000
1100
0000
,
0010
0000
0001
0000
0100
0000
0001
0000
1000
0000
0000
1001
0000
0000
0010
0000
,
0001
0000
0000
1100
0000
0000
0100
0000
1000
0000
0000
1000
0000
0000
1000
0000
,
0100
0000
0100
0000
0010
0000
0001
0000
1000
0000
0000
1010
0000
0000
0100
0001
,
2000
0000
0000
0000
,
3000
0000
0000
0000;

//---------------dance-single - ANOTHER----------------
#NOTES:
     dance-single:
     ANOTHER:
     medium:
     4:
     0.342,0.370,0.112,0.051,0.000,220.000,11.000,5.000,0.000,0.000:




0000
0000
0000
0000
,
0000
0000
0000
0000
,
0000
0000
0000
0000
,
0000
0000
0000
0000
,
1000
0000
0001
0000
,
1000
0000
0100
0000
,
0001
0000
1000
0000
,
0020
0000
0000
0000
,
1030
0000
0100
0010
0001
0000
0100
1000
,
0010
0000
0100
0010
0001
0000
0100
1000
,
0010
1000
0001
0100
,
0010
1000
0001
0100
,
0010
0000
0001
0100
0010
0000
0100
1000
,
0010
0000
0010
0001
0100
0000
0010
1000
,
0100
0010
0001
1000
,
0100
0110
0100
0000
,
1001
0100
0010
0010
,
0100
0000
0001
0000
1000
0000
0100
0010
,
0001
0100
1000
0010
,
1000
0000
0001
0000
0100
0000
0010
1000
,
0001
0001
0010
0100
,
1000
0010
0100
0001
,
0010
0100
1000
0100
,
0011
0100
1100
0100
,
0110
0001
1000
0110
,
0010
0010
1000
0001
,
0010
0000
0002
0000
1000
0000
1000
0003
,
0200
0000
0010
0000
0010
0300
0110
0000
,
0100
0001
1000
0010
,
0100
0000
0100
0010
,
0001
0000
1000
0010
,
0200
0000
0000
0000
,
0301
0000
0100
0000
0010
0000
1000
0001
,
0100
0000
0010
1000
0100
0000
0100
0010
,
0100
0001
1000
0010
,
0010
0000
1000
0000
0001
0000
0100
0001
,
1000
0000
0001
0000
0001
0000
0001
0010
,
0001
0000
0001
0000
0001
0000
0001
0010
,
0001
0000
1000
0000
1000
0000
1000
0010
,
1000
1000
1000
1000
,
1001
0000
0100
0010
0001
0000
0100
0000
,
0010
0000
0010
1000
0100
1000
0001
0000
,
0010
0000
0100
0001
0100
0000
0001
0000
,
1000
0000
0100
0010
0100
1000
0001
0000
,
0100
0000
0010
1000
0010
1000
0001
0000
,
0010
0000
0100
1000
0100
0001
0100
0000
,
1000
0000
0010
0000
0001
0010
1000
0000
,
0001
0000
0100
0000
1000
0100
0001
0000
,
0010
0100
1000
0010
,
0100
0001
0010
0100
,
0110
0110
0001
1000
,
0010
0000
0100
0000
0001
0000
1000
0100
,
0010
0001
1000
0010
,
0100
0001
1000
0010
,
0110
0100
0001
1000
,
0020
0000
0000
0000
,
0030
0000
0000
0000;

//---------------dance-single - BASIC----------------
#NOTES:
     dance-single:
     BASIC:
     easy:
     3:
     0.187,0.254,0.030,0.041,0.000,122.000,3.000,4.000,0.000,0.000:




0000
0000
0000
0000
,
0000
0000
0000
0000
,
0000
0000
0000
0000
,
0000
0000
0000
0000
,
0200
0000
0000
0000
,
0000
0000
0000
0000
,
0000
0000
0000
0000
,
0310
0000
0000
0000
,
1000
0000
0001
0100
,
0010
0000
0100
0010
,
0100
0000
0000
0000
,
0010
0000
0000
0001
,
0010
0000
0100
1000
,
0010
0000
0010
0010
,
0010
0000
0100
0100
,
0002
0000
0000
0000
,
1003
0100
0010
0000
,
0100
0000
0010
0000
,
0001
0001
1000
1000
,
0010
0010
0100
0100
,
0001
0000
0001
0000
,
0100
0000
0000
0000
,
0010
0000
0000
0000
,
0101
0000
0101
0000
,
0001
1000
0100
0010
,
0100
1000
0001
0100
,
0010
0000
0100
0000
,
0010
0100
0001
1000
,
0100
0000
0000
0000
,
0010
0000
0000
0000
,
0100
0000
0000
1000
,
2000
0000
3000
0001
,
0001
0000
0100
0000
,
0010
0000
1000
0010
,
0100
0000
0000
0001
,
0100
0000
0000
0010
,
1000
0000
0000
0000
,
0001
0000
0100
0000
,
0001
0000
0001
0000
,
0001
1000
0001
1000
,
0001
0000
0010
0100
,
0000
0100
0010
1000
,
0000
0100
0001
1000
,
0000
0010
1000
0010
,
0000
0100
1000
0001
,
0010
0001
0100
0001
,
0000
0010
0100
0000
,
0010
0000
0100
0100
,
0010
0000
1000
0000
,
0001
0100
0010
1000
,
0001
0000
0100
0000
,
1000
0010
1000
0000
,
0100
0000
0001
0000
,
0001
0000
0010
0000
,
0010
0100
0100
0100
,
0201
0000
0300
0000;

//---------------dance-single - Challenge----------------
#NOTES:
     dance-single:
     Challenge:
     challenge:
     8:
     0.516,0.482,0.223,0.051,0.198,329.000,22.000,5.000,0.000,0.000:

0000
0000
0000
0000
,
0000
0000
0000
0000
,
0000
0000
1000
0000
1000
0000
0000
0000
0100
0000
0000
0010
0000
0000
0001
0000
,
0000
0000
0001
0000
0001
0000
0000
0000
0100
0000
0000
0010
0000
0000
1000
0000
,
0000
0000
1000
0000
1000
0000
0000
0000
0010
0000
0000
0101
0000
0000
0001
0000
,
0000
0000
0001
0000
0001
0000
0000
0000
0010
0000
0000
1100
0000
0000
1000
0000
,
0000
0000
1000
0000
1000
0000
0000
0000
1010
0000
0000
0110
0000
0000
0101
0000
,
0000
0000
0000
0000
,
0000
0000
0100
0000
0010
0000
0001
0000
0010
0000
0000
1000
0000
0000
0100
0000
,
0001
0000
0000
0010
0000
0000
0001
0000
0100
0000
0000
1000
0000
0000
0010
0000
,
0010
0000
0010
0000
0010
0000
0000
0000
0101
0000
0000
0010
0000
0000
0101
0000
,
0000
0000
0000
0000
1000
0000
0000
0000
1100
0000
0000
0010
0000
0000
1100
0000
,
0000
0000
0010
0000
0100
0000
0001
0000
0100
0000
0000
1000
0000
0000
0010
0000
,
0001
0000
0000
0100
0000
0000
0001
0000
0010
0000
0000
1000
0000
0000
0100
0000
,
0100
0000
0100
0000
0100
0000
0000
0000
0011
0000
0000
1000
0000
0000
0101
0000
,
0002
0000
0000
0000
0003
0000
0000
0000
1010
0000
0000
0001
0000
0000
1100
0000
,
0000
1000
0010
0100
0001
0100
0001
0010
,
0100
1000
0100
1000
0010
0100
0001
0100
,
0001
1000
1000
0000
0001
0010
0100
1000
,
0010
0100
0001
0010
0100
1000
0010
0100
,
0000
0000
1000
0000
0100
0000
0010
0000
0001
0000
0000
0100
0000
0000
0010
0000
,
0000
0000
0001
0000
0100
0000
0010
0000
1000
0000
0000
0100
0000
0000
0010
0000
,
0000
0000
0010
0000
0001
0000
0100
0000
1000
0000
0000
0010
0000
0000
0001
0000
,
0000
0000
0100
0000
0001
0000
0010
0000
1000
0000
0000
0100
0000
0000
0001
0000
,
0000
1000
0100
0010
0001
0010
0001
0100
,
0010
1000
0010
1000
0100
0010
0001
0010
,
0001
1000
1000
0000
0001
0100
0010
1000
,
0100
0010
0001
0100
0010
1000
0100
0010
,
0000
0000
0001
0000
0100
0000
0010
0000
1000
0000
0000
0100
0000
0000
0010
0000
,
0000
0000
1000
0000
0100
0000
0010
0000
0001
0000
0000
0100
0000
0000
0010
0000
,
0000
0000
0010
0000
1000
0000
0100
0000
0001
0000
0000
0010
0000
0000
1000
0000
,
0000
0000
0100
0000
1000
0000
0010
0000
0001
0000
0000
0100
0000
0000
1000
0000
,
0001
0001
0010
0010
0100
0100
1000
0100
,
1000
1000
0010
0010
0100
0100
0001
0100
,
0002
0000
0003
0000
0000
0010
0100
0100
,
1000
0010
0100
0100
0001
0010
0100
0100
,
1000
0000
0010
0000
0200
0000
0000
0000
0000
0000
0001
0000
0000
0001
0300
0000
,
0000
0010
0100
0100
1000
0010
0100
0100
,
0001
0000
0010
0000
0200
0000
0000
0000
0000
0000
0001
0000
0000
0001
0300
0000
,
0000
0000
0000
0010
0001
0000
1010
0000
,
0000
0000
1000
0000
0010
0000
0000
0100
0001
0000
0100
0000
0001
0000
0010
0000
,
0100
0000
1000
0000
0100
0000
0000
1000
0010
0000
0100
0000
0001
0000
0100
0000
,
0001
1000
1000
0000
0001
0010
0100
1000
,
0010
0100
0001
0010
0100
1000
0010
0100
,
0000
0000
1000
0000
0100
0000
0000
0010
0001
0000
0010
0000
0001
0000
0100
0000
,
0010
0000
1000
0000
0010
0000
0000
1000
0100
0000
0010
0000
0001
0000
0010
0000
,
0001
1000
1000
0000
0001
0100
0010
1000
,
0100
0010
0001
0100
0010
1000
0100
0010
,
0000
0000
0100
0000
0010
0000
0001
0000
0010
0000
0000
1000
0000
0000
0100
0000
,
0001
0000
0000
0010
0000
0000
0001
0000
0100
0000
0000
1000
0000
0000
0010
0000
,
0010
0000
0010
0000
0010
0000
0000
0000
0101
0000
0000
0010
0000
0000
0101
0000
,
0000
0000
0000
0000
1000
0000
0000
0000
1100
0000
0000
0010
0000
0000
1100
0000
,
0000
0000
0010
0000
0100
0000
0001
0000
0100
0000
0000
1000
0000
0000
0010
0000
,
0001
0000
0000
0100
0000
0000
0001
0000
0010
0000
0000
1000
0000
0000
0100
0000
,
0100
0000
0100
0000
0100
0000
0000
0000
0011
0000
0000
1000
0000
0000
0101
0000
,
0002
0000
0000
0000
0003
0000
0000
0000
1010
0000
0000
0001
0000
0000
1100
0000;

//---------------dance-single - Copied from BASIC----------------
#NOTES:
     dance-single:
     Copied from BASIC:
     beginner:
     2:
     0.138,0.195,0.051,0.000,0.000,90.000,5.000,0.000,0.000,0.000:
0000
0000
0000
0000
,
0000
0000
0000
0000
,
0000
0000
0000
0000
,
0000
0000
0000
0000
,
0100
0000
0000
0000
,
0000
0000
0000
0000
,
0000
0000
0000
0000
,
0010
0000
0000
0000
,
1000
0000
0001
0000
,
0010
0000
0100
0000
,
0100
0000
0000
0000
,
0010
0000
0000
0001
,
0000
0000
0100
0000
,
0010
0000
0010
0010
,
0010
0000
0100
0000
,
0001
0000
0000
0000
,
1000
0000
0010
0000
,
0100
0000
0010
0000
,
0001
0001
0000
1000
,
1000
0000
0000
0010
,
0010
0000
0001
0000
,
0100
0000
0000
0000
,
0010
0000
0000
0000
,
0110
0000
0110
0000
,
0001
0000
1000
0000
,
0100
0000
0010
0000
,
0100
0000
1000
0000
,
0010
0000
0001
0000
,
0010
0000
1000
0000
,
0100
0000
0001
0000
,
0100
0000
1000
0000
,
1000
0000
0000
0001
,
0001
0000
0100
0000
,
0010
0000
1000
0000
,
0100
0000
0000
0001
,
0000
0100
0000
0010
,
0000
0000
0000
0000
,
0001
0000
0100
0000
,
0001
0000
0001
0000
,
1001
0000
1001
0000
,
0001
0000
0000
0100
,
0000
0100
0000
1000
,
0000
0100
0000
1000
,
0000
0000
1000
0000
,
0000
0000
1000
0000
,
0010
0000
0100
0000
,
0000
0000
0100
0000
,
0010
0000
0100
0000
,
0010
0000
1000
0000
,
0001
0000
0010
0000
,
0001
0000
0100
0000
,
1000
0000
1000
0000
,
0100
0000
0001
0000
,
0001
0000
0010
0000
,
0100
0100
0100
0000
,
0110
0000
0000
0000
;
